Results 1 to 11 of 11

Thread: Vasteel Problems

  1. #1
    Join Date
    Feb 2005
    Location
    Brazil
    Posts
    370
    Thanks
    16
    Thanked 4 Times in 4 Posts
    EP Points
    15

    Default Vasteel (PC Engine) Problems

    I get this game from YSI but i have a problem, I downloaded the game extract the files, transform the mp3 in wav, and mount the cue in daemon tools so i use magic engine 099beta5 and v0.98 and yame but the problem still there, the intro is all messed up the voices some times don't play when play they don't have sync with what is show in the intro, so if anyone can help please help me out i think it's beacause is a iso+mp3 game so if anyone know where i can find a bin/cue please tell me if not it's ok, i just see this game in YSI while i downloading Snatcher so i tried, and liked and wish i can play it any help is good and thanks in advance
    Last edited by Bruno; 25th-July-2005 at 21:35.

  2. #2
    Join Date
    May 2004
    Location
    Right behind you...
    Posts
    2,262
    Thanks
    0
    Thanked 1 Time in 1 Post
    EP Points
    5

    Default

    Well, have you tried enabling analog audio in the Daemon tools options? Also, you can make a bin+cue file of this game yourself using Alcohol 120% or ISOBuster. With Alcohol, just mount the image first, then use the Image Making Wizard option, and select the CDRWin image output type.

  3. #3
    Join Date
    Feb 2005
    Location
    Brazil
    Posts
    370
    Thanks
    16
    Thanked 4 Times in 4 Posts
    EP Points
    15

    Default

    yeah the analog audio is always enabled i will try do a bin/cue from this that i have thanks

    no change i did a bin/cue from this i have and nothing so i think maybe the original iso+mp3 have problems so the problem is the iso and do a bin/cue don't fix this erros maybe are the mp3 that are bad riped don't know

    I scanned with cd mage and it found 150 high severe erros so maybe there's no way to fix this

    i think i find the real problem most of the PC Engine games have problems with the audio because the cue sheets are all wrong i take a look in this site:

    http://rigg.arrowsmash.com/aki/overview.html

    but i'm not very good with this things but i love the PC Engine games so if anyone that like this games and know how help and see this please help me ok thanks

  4. #4
    Join Date
    May 2004
    Location
    Right behind you...
    Posts
    2,262
    Thanks
    0
    Thanked 1 Time in 1 Post
    EP Points
    5

    Default

    Here's what the proper cue sheet should look like, taken from PC-Engine TOC Database...

    FILE Track01.wav WAVE
    TRACK 01 AUDIO
    INDEX 01 00:00:00
    FILE Track02.iso BINARY
    TRACK 02 MODE1/2048
    PREGAP 00:03:00
    INDEX 01 00:00:00
    FILE Track03.wav WAVE
    TRACK 03 AUDIO
    PREGAP 00:02:00
    INDEX 01 00:00:00
    FILE Track04.wav WAVE
    TRACK 04 AUDIO
    PREGAP 00:00:00
    INDEX 01 00:00:00
    FILE Track05.wav WAVE
    TRACK 05 AUDIO
    PREGAP 00:00:00
    INDEX 01 00:00:00
    FILE Track06.wav WAVE
    TRACK 06 AUDIO
    PREGAP 00:00:00
    INDEX 01 00:00:00
    FILE Track07.wav WAVE
    TRACK 07 AUDIO
    PREGAP 00:00:00
    INDEX 01 00:00:00
    FILE Track08.wav WAVE
    TRACK 08 AUDIO
    PREGAP 00:00:00
    INDEX 01 00:00:00
    FILE Track09.wav WAVE
    TRACK 09 AUDIO
    PREGAP 00:00:00
    INDEX 01 00:00:00
    FILE Track10.wav WAVE
    TRACK 10 AUDIO
    PREGAP 00:00:00
    INDEX 01 00:00:00
    FILE Track11.wav WAVE
    TRACK 11 AUDIO
    PREGAP 00:00:00
    INDEX 01 00:00:00
    FILE Track12.wav WAVE
    TRACK 12 AUDIO
    PREGAP 00:00:00
    INDEX 01 00:00:00
    FILE Track13.wav WAVE
    TRACK 13 AUDIO
    PREGAP 00:00:00
    INDEX 01 00:00:00
    FILE Track14.wav WAVE
    TRACK 14 AUDIO
    PREGAP 00:00:00
    INDEX 01 00:00:00
    FILE Track15.wav WAVE
    TRACK 15 AUDIO
    PREGAP 00:00:00
    INDEX 01 00:00:00
    FILE Track16.wav WAVE
    TRACK 16 AUDIO
    PREGAP 00:00:00
    INDEX 01 00:00:00
    FILE Track17.wav WAVE
    TRACK 17 AUDIO
    PREGAP 00:00:00
    INDEX 01 00:00:00
    FILE Track18.wav WAVE
    TRACK 18 AUDIO
    PREGAP 00:00:00
    INDEX 01 00:00:00
    FILE Track19.wav WAVE
    TRACK 19 AUDIO
    PREGAP 00:00:00
    INDEX 01 00:00:00
    FILE Track20.wav WAVE
    TRACK 20 AUDIO
    PREGAP 00:00:00
    INDEX 01 00:00:00
    FILE Track21.wav WAVE
    TRACK 21 AUDIO
    PREGAP 00:00:00
    INDEX 01 00:00:00
    FILE Track22.wav WAVE
    TRACK 22 AUDIO
    PREGAP 00:00:00
    INDEX 01 00:00:00
    FILE Track23.wav WAVE
    TRACK 23 AUDIO
    PREGAP 00:00:00
    INDEX 01 00:00:00
    FILE Track24.wav WAVE
    TRACK 24 AUDIO
    PREGAP 00:00:00
    INDEX 01 00:00:00
    FILE Track25.wav WAVE
    TRACK 25 AUDIO
    PREGAP 00:00:00
    INDEX 01 00:00:00
    FILE Track26.wav WAVE
    TRACK 26 AUDIO
    PREGAP 00:00:00
    INDEX 01 00:00:00
    FILE Track27.wav WAVE
    TRACK 27 AUDIO
    PREGAP 00:00:00
    INDEX 01 00:00:00
    FILE Track28.wav WAVE
    TRACK 28 AUDIO
    PREGAP 00:00:00
    INDEX 01 00:00:00
    FILE Track29.wav WAVE
    TRACK 29 AUDIO
    PREGAP 00:00:00
    INDEX 01 00:00:00
    FILE Track30.wav WAVE
    TRACK 30 AUDIO
    PREGAP 00:00:00
    INDEX 01 00:00:00
    FILE Track31.wav WAVE
    TRACK 31 AUDIO
    PREGAP 00:00:00
    INDEX 01 00:00:00
    FILE Track32.iso BINARY
    TRACK 32 MODE1/2048
    PREGAP 00:03:00
    INDEX 01 00:00:00

  5. #5
    Join Date
    Feb 2005
    Location
    Brazil
    Posts
    370
    Thanks
    16
    Thanked 4 Times in 4 Posts
    EP Points
    15

    Default

    ohh man i'm killing myself trying to find a site like this in google and when i see this thanks a lot i hope this cue works i'm very very grateful really thanks a lot

  6. #6
    Join Date
    May 2004
    Location
    Right behind you...
    Posts
    2,262
    Thanks
    0
    Thanked 1 Time in 1 Post
    EP Points
    5

    Default

    Quote Originally Posted by Bruno
    ohh man i'm killing myself trying to find a site like this in google and when i see this thanks a lot i hope this cue works i'm very very grateful really thanks a lot
    Just don't forget to bookmark that site, it is really handy Saved me a lot of trouble.

  7. #7
    Join Date
    Feb 2005
    Location
    Brazil
    Posts
    370
    Thanks
    16
    Thanked 4 Times in 4 Posts
    EP Points
    15

    Default

    yeah i already do that hehehe i will be more happy when the game works if not i'm still happy thanks a lot hehehehe

    no good i get the cue that came with the iso and copy paste the cue that you display in here and saved but when i try to mount in the Daemon it give me a error did you get from the site and edit it? in the end the FILE Track32.iso BINARY is it correct? i have a wav file in here like this FILE Track32.wav WAVE anyway i download the cue from the site and the voice in the intro is with no voice and i can't go to the game because the game freeze

    I just don't get it before i can run the game but the sync is bad now the game doesn't work with a new cue and same if i use the old cue i think the cue is good maybe is something with my pc or i did something wrong just to test while i'm trying to get Vasteel working i get another game R-Type Complete and for test too i burn in a cd so the game got the voice out of sync too but now that the Vasteel is not working i tested R-Type and the game work perfectly the same game that i burn and don't work some time before that is really strange i do something wrong what a mess
    Last edited by Bruno; 26th-July-2005 at 04:13.

  8. #8
    Join Date
    May 2004
    Location
    Right behind you...
    Posts
    2,262
    Thanks
    0
    Thanked 1 Time in 1 Post
    EP Points
    5

    Default

    I didn't edit the cue at all, it's all there just like it was on the site. Are all your files named accordingly? Also you could edit each of the FILE lines to match what is on your hard drive. You might also need the System 3 BIOS, get it here: http://www.planetemu.net/index.php?s...owrom&id=81312

    Unzip it and plop it in the Magic Engine main directory on your hard drive and config the PCE.ini so that it points to it. It will be near the bottom of the file in a section which looks like this, assuming you're using the 0.99 Beta 5 version:

    # ----
    # path settings
    # ----

    [path]

    ;
    ; system card paths
    ; --
    ;

    system_card_1=CD-ROM System V1.00 (J).pce
    system_card_2=CD-ROM System V2.01 (U).pce
    system_card_3=Super CD-ROM2 System V3.00 (J).pce<---------right here
    system_card_4=Games Express CD Card 1993 (J).pce

    In the Boot Menu of Magic Engine select the System card 3 bios option to run the game.
    If that doesn't work then I dunno what is wrong. You might have to ask the individual who uploaded about what might be wrong at that point.
    Last edited by AKUMA™; 26th-July-2005 at 04:39.

  9. #9
    Join Date
    Feb 2005
    Location
    Brazil
    Posts
    370
    Thanks
    16
    Thanked 4 Times in 4 Posts
    EP Points
    15

    Default

    thanks put this System 3 BIOS in magic engine help to resolve the freeze thing that didn't allow me to play the game and i know what are messing up the intro it's daemon i burn Vasteel with fireburner and run from the cd the game works perfectely and with the same iso mounted in daemon tools the game work but with the voices messed up the music in the main menu keep playing but it is supposed to stop when a press start so the intro could play normally even when i close the magic engine the music keeps playing so i don't know is there a other tool to mount image or a config in magic engine that fix this? and thanks a lot for all your help

  10. #10
    Join Date
    May 2004
    Location
    Right behind you...
    Posts
    2,262
    Thanks
    0
    Thanked 1 Time in 1 Post
    EP Points
    5

    Default

    Well, Alcohol 120% and the latest Nero will mount images as well, but I don't think that they work too well with the PC Engine CD games. But if you managed to get the game to run perfectly from a CD burned using Fireburner then I guess you'll have to stick to using that then. I browsed the Magic Engine forums and I didn't see anything related to a sound issue with this game, just the problem with it freezing. That's where I figured out you had to get the System BIOS 3 to make it stop freezing. I wish I could do more for this, but unfortunately I am all out of ideas.

  11. #11
    Join Date
    Feb 2005
    Location
    Brazil
    Posts
    370
    Thanks
    16
    Thanked 4 Times in 4 Posts
    EP Points
    15

    Default

    Thanks i will burn the game in a cd-r because i always test using a cd-rw then it's not that dificult anyway, is more easy mount but doesn't matter at least i can play the game thanks to you you really helped me a lot i'm not good with this emulation problems but i hope one day i can be useful for anyone in trouble like you and all guys in this great forum are for me thanks a lot

    i get a recent version of Daemon and the game not even load mine is 3.0 it work but with sound messed up the newer version daemon347 don't even load the game maybe this is daemon fault or mine or my pc but i will burn if not have a other way

Similar Threads

  1. more burning problems i think
    By Yumero in forum Computer Corner
    Replies: 4
    Last Post: 14th-October-2004, 22:38
  2. cursor problems in Lunar for Sega CD
    By LLP in forum Everything Emulation
    Replies: 3
    Last Post: 6th-February-2004, 11:01
  3. Im having problems with Xenogears CD 1
    By Krake in forum Everything Emulation
    Replies: 12
    Last Post: 28th-January-2004, 17:21
  4. BLEEM!CAST COMPATIBILITY
    By LitBolt in forum Everything Emulation
    Replies: 18
    Last Post: 10th-August-2003, 23:18

Posting Permissions

  • You may not post new threads
  • You may not post replies
  • You may not post attachments
  • You may not edit your posts
  •  
About Us

We are the oldest retro gaming forum on the internet. The goal of our community is the complete preservation of all retro video games. Started in 2001 as EmuParadise Forums, our community has grown over the past 18 years into one of the biggest gaming platforms on the internet.

Social